2024 Theodis ealey - Theodis Ealey-Stand Up In It (The OFFICIAL VIDEO) Concerts in United States See All Concerts . Sep. 29. Sep 29, 2023 . Martin Marietta Center for the Performing Arts (fka Duke Energy) Raleigh. Oct. 06. Oct 06, 2023 . The Lyric Theatre. Baltimore. Oct. 07. Oct 07, 2023 . Chrysler Hall. Norfolk. Oct. 20.

 
Enjoy Theodis Ealey’s latest songs and explore the Theodis Ealey’s new music albums. If you want to download Theodis Ealey songs MP3, use the Boomplay App to download the Theodis Ealey songs for free. Discover Theodis Ealey’s latest songs, popular songs, trending songs all on Boomplay.. Theodis ealey

Provided to YouTube by IngroovesStand Up in It · Theodis EaleyI'm the Man You Need℗ 2006 IFGAM RecordsReleased on: 2006-11-07Writer: Theodis EaleyWriter: Wil...Provided to YouTube by IngroovesStand up in It · Theodis EaleyStand up in It℗ 2004 IFGAM RecordsReleased on: 2004-01-01Writer: Theodis EaleyWriter: William T...It's a Real Good ThangTheodis Ealey January 1, 2002 https://www.amazon.com/dp/B000QKFTV4/ref=dm_ws_ps_adpOriginal Release Date: January 1, 2002Release Date: ...Play Theodis Ealey and discover followers on SoundCloud | Stream tracks, albums, playlists on desktop and mobile. SoundCloud Theodis Ealey. Theodis Ealey’s tracks The Reason for the Season by Theodis Ealey published on 2022-11-17T14:00:46Z. Want Her More by Theodis Ealey published on 2020-05-21T18 ...Provided to YouTube by CDBabyFrancine · Theodis EaleyBruce Billups Southern Soul Mix (Re-Loaded)℗ 2010 Bruce BillupsReleased on: 2010-04-25Auto-generated by ...Jan 4, 2019 · Provided to YouTube by IngroovesLet's Get It On (Medley With Rock Me Tonight & Sexual Healing) · Theodis EaleyI'm the Man You Need℗ 2006 IFGAM RecordsRelease... Theodis Ealey generated industry recognition for his innovative style and authentic Mississippi flavor as the recipient of the Male Vocalist Top Star Award in the San Francisco Bay Area in 1994 and Mo’ Better Blues Male Artist of the Year Award in Atlanta, GA in 1997. Theodis’ most recent awards include the Jus’ Blues Best Blues & Soul ...With his third album, Theodis Ealey moves away from the blues and toward contemporary R&B. The change in direction is the most evident in the synthesized rhythms and instrumental backdrops that accompany the guitarist on about half of the album. For blues purists, the presence of synths sinks the value of the album immediately and, this time ...Dec 10, 2016 · Blues Singer Theodis Ealey "Pop That Middle" All top songs, albums, playlists Francine Theodis Ealey. Let Me Put the Head In It Theodis Ealey. Please, Let Me In Theodis Ealey. Move With The Motion Theodis Ealey. Let's Get It On (Medley With Rock Me Tonight & Sexual Healing) Theodis Ealey. Don't You Wanna Party Theodis Ealey.Feb 5, 2013 · Baby's Got Them Blue Jeans On. 3:52. February 5, 2013 11 Songs, 50 minutes ℗ 2012 IFGAM Records. Also available in the iTunes Store. Listen to You and I, Together by Theodis Ealey on Apple Music. 2013. 11 Songs. Duration: 50 minutes. Something went wrong. There's an issue and the page could not be loaded. Reload page. 2,082 Followers, 145 Following, 41 Posts - See Instagram photos and videos from Theodis Ealey (@theodisealey)Apr 11, 2022 · Provided to YouTube by TuneCoreBrown Liquor · Theodis EaleyBrown Liquor℗ 2022 Lab Life Entertainment LLCReleased on: 2022-04-08Auto-generated by YouTube. I Want a Big Legged Woman (With Good Credit)Larry GriffithFrom the Album Theodis Ealey Presents: A Southern Soul Mix, Vol. 1April 7, 2015https://www.amazon.c...Copyright Disclaimer under section 107 of the Copyright Act of 1976, allowance is made for "fair use" for purposes such as criticism, comment, news reporting...Jan 4, 2017 · Theodis Ealey. 4,879 listeners. Blues Guitarist, Vocalist, Songwriter Producer, and Entertainer… are just a few of the titles that describe the phenomenon of Theodis Ealey. This Mississippi native first picked up an… read more. Mar 1, 2015 · This smash single spent 6 weeks as #1 on the R&B HIP/HOP Single Sales Chart. Provided to YouTube by IngroovesYou Got Me Runnin' (Baby What You Want Me to Do) · Theodis Ealey · LatimoreLive℗ 2009 IFGAM RecordsReleased on: 2009-02-10Wri...With his third album, Theodis Ealey moves away from the blues and toward contemporary R&B. The change in direction is the most evident in the synthesized rhythms and instrumental backdrops that accompany the guitarist on about half of the album. For blues purists, the presence of synths sinks the value of the album immediately and, this time ...Theodis Ealey), Don't Let and more. Listen to music by Jay Hall on Apple Music. Listen Now; Browse; Radio; Search; Open in Music. Jay Hall. Top Songs. Lets Roll (feat. Theodis Ealey) Lets Roll (feat. Theodis Ealey) - Single · 2018. Don't Let. Don't Let - Single · 2020. I Dont Break Down (feat. Jay Hall)Theodis Ealey is known for Hap and Leonard (2016), Nashville (2012) and Miss Evers' Boys (1997). Menu. Movies. Release Calendar Top 250 Movies Most Popular Movies Browse Movies by Genre Top Box Office Showtimes & Tickets …The Tally City Blues Festival featuring performances by King George, Calvin Richardson, Lenny Wiliams, Theodis Ealey, and Ronnie Bell @ Donald L. Tucker Civic Center // 7 PM Saturday, October 28, 2023 @ TBD"Copyright Disclaimer Under Section 107 of the Copyright Act 1976, allowance is made for "fair use" for purposes such as criticism, comment, news reporting, ...Stand Up In It By Theodis Ealey [Explicit]LiveTheodis Ealey Format: Audio CDhttps://www.amazon.com/Theodis-Ealey/e/B000APEM2W/ref=dp_byline_cont_music_1Man...Stand Up in It Lyrics by Theodis Ealey from the custom_album_8180301 album - including song video, artist biography, translations and more: Now this song is going out to all of you players Wanna be players Wanna be pimps Mack daddys Or whatever you call y…THEODIS EALEY’s tracks Don't Move The Groove by THEODIS EALEY published on 2016-05-24T02:04:18Z. 07 Looking Up At The Bottom by THEODIS EALEY published on 2015-12-16T06:55:32Z. 05 Let's Get It On (Medley With Rock by THEODIS EALEY published on 2015-12-16T06:49:09Z.Sep 29, 2023 · Theodis Ealey is a blues singer and songwriter who loves the blues and the juke joint culture. Find out his upcoming shows, latest videos, and how to connect with him on his official website. Provided to YouTube by IngroovesIt's a Real Good Thang · Theodis EaleyIt's a Real Good Thang℗ 2002 IFGAM RecordsReleased on: 2002-01-01Writer: Theodis EaleyA...Stand up in It, Pt. 2. Theodis Ealey Stand up in It. Let Me Put the Head in It. Theodis Ealey Let Me Put the Head in It (Blues and Soul Mix) You and I, …Provided to YouTube by IngroovesStand Up in It · Theodis EaleyI'm the Man You Need℗ 2006 IFGAM RecordsReleased on: 2006-11-07Writer: Theodis EaleyWriter: Wil...Jan 19, 2007 · Theodis Ealey is known worldwide as a skilled guitarist, vocalist, songwriter, and producer. He has backed such artists as Little Milton, Johnny Clyde Copeland, Richard "Dimples" Fields, the Blues Brothers, and the legendary Charles Brown. Follow usInstagram: Eloveationsc Theodis "the artist" was born. Ichiban Records, a respected blues label in Atlanta, recognized Theodis' multiple talents and immediately signed him to a deal in 1991. Over the next six years, Theodis and Ichiban Records would enjoy 4 very successful albums. It was Theodis Ealey's charm and magnetism that attracted audiences worldwide. Filename W:\Rips\Theodis Ealey - 1998 - Raw\08 - All My Baby Left Me Was A Note, My Guitar, and a Cookie Jar.wav Peak level 99.6 % Test CRC 6E5C9F71 Copy CRC 6E5C9F71 Track not present in AccurateRip database Copy OK Track 9 Filename W:\Rips\Theodis Ealey - 1998 - Raw\09 - Walkin' Blues.wavFollow usInstagram: EloveationscStand Up in It Lyrics by Theodis Ealey- including song video, artist biography, translations and more: Now this song is going out to all of you players Wanna be players Wanna be pimps Mack daddys Or whatever you call y…Follow usInstagram: EloveationscListen to Theodis Ealey on Spotify. Artist · 35K monthly listeners.Listen to Theodis Ealey on Spotify. Artist · 35K monthly listeners.Stand Up In It By Theodis Ealey [Explicit]LiveTheodis Ealey Format: Audio CDhttps://www.amazon.com/Theodis-Ealey/e/B000APEM2W/ref=dp_byline_cont_music_1Man... Useful links. Listen to Theodis Ealey on Spotify. Artist · 34.5K monthly listeners. Provided to YouTube by IngroovesStand Up in It · Theodis EaleyI'm the Man You Need℗ 2006 IFGAM RecordsReleased on: 2006-11-07Writer: Theodis EaleyWriter: Wil...Find information on all of Theodis Ealey’s upcoming concerts, tour dates and ticket information for 2023-2024. Theodis Ealey is not due to play near your location currently - but they are scheduled to play 5 concerts across 1 country in 2023-2024. View all concerts. Buy tickets for Theodis Ealey concerts near you.18. Atlantic City, NJ, US. Tropicana Showroom, Tropicana Atlantic City. Touring outside your city. Be the first to know when they tour near Chase …Listen free to Theodis Ealey – It's a Real Good Thang (All My Baby Left Me Was A Note, My Guitar And A Cookie Jar, Reconsider Baby and more). 11 tracks (51:03). Discover more music, concerts, videos, and pictures with the largest catalogue online at Last.fm.Aug 11, 2023 · Powerful Christmas duet by Theodis Ealey and Lebradohttps://music.apple.com/us/album/the-reason-for-the-season-feat-lebrado-bonus-track/447642335?i=447642374... Ten years later, Theodis on bass was playing at his first gig with brothers Y Z and Melvin Ealey in a group called Y Z Ealey and the Merrymakers. This brotherly trio made their debut in their hometown of Natchez, Mississippi at a local nightclub called Horseshoe Circle.Apr 8, 2022 · Born. 1947 (age 76) Blues Guitarist, Vocalist, Songwriter Producer, and Entertainer… are just a few of the titles that describe the phenomenon of Theodis Ealey. This Mississippi native first picked up an instrument when his older brother Y Z Ealey first taught him how to play at the age of 4. Ten years lat… read more. Provided to YouTube by IngroovesThink It Over · Theodis Ealey · LaceeYou and I, Together℗ 2012 IFGAM RecordsReleased on: 2013-02-05Writer: Rodney Maurice Cat...Theodis Ealey. Play full songs with Apple Music. Get up to 3 months free . Try Now . Top Songs By Theodis Ealey. Stand Up In It Theodis Ealey. Stand Up In It Theodis Ealey. Stand Up In It Part II Theodis Ealey. Pop That Middle Theodis Ealey. Francine Theodis Ealey. Let Me Put the Head In It Theodis Ealey.She said Theodis, men think they know what women want But the truth about the whole thing is boy they really don't Now you can play around it, and you can stroke it Do any damn thing you gat the notion But you ain't did a dog gone thing until you stand up in it Now you can squeeze it, and you can stroke it But you ain't did a dog gone thing ...Song: Stand Up In It Artist: Theodis Ealey Album: Stand Up In It Writer: William Travis Jr .aka (El' Willie) Writer: Theodis Ealey Producers: Bruce Billups, ...Provided to YouTube by IngroovesKeep on Dancing · Theodis Ealey · J. RedKeep on Dancing℗ 2013 IFGAM RecordsReleased on: 2013-07-02Writer: Jesse RedmondWriter... All top songs, albums, playlists Listen free to Theodis Ealey – It's a Real Good Thang (All My Baby Left Me Was A Note, My Guitar And A Cookie Jar, Reconsider Baby and more). 11 tracks (51:03). Discover more music, concerts, videos, and pictures with the largest catalogue online at Last.fm.Stand Up in It is a popular song by blues artist Theodis Ealey that was released in 2004. The song is an explicit and provocative celebration of intimacy and passion between two individuals. Its lyrics delve into the sensual aspects of a romantic relationship, emphasizing the importance of sexual connection and satisfaction.Francine Theodis Ealey. Let Me Put the Head In It Theodis Ealey. Please, Let Me In Theodis Ealey. Move With The Motion Theodis Ealey. Let's Get It On (Medley With Rock Me Tonight & Sexual Healing) Theodis Ealey. Don't You Wanna Party Theodis Ealey.In conclusion, “Stand up in it” by Theodis Ealey carries a profound message about the importance of emotional connection and genuine effort in relationships. It encourages listeners to go beyond surface-level interactions and truly understand and satisfy their partner’s needs. The song has personally impacted me and served as a …Jan 4, 2019 · Provided to YouTube by IngroovesLet's Get It On (Medley With Rock Me Tonight & Sexual Healing) · Theodis EaleyI'm the Man You Need℗ 2006 IFGAM RecordsRelease... Filename W:\Rips\Theodis Ealey - 1998 - Raw\08 - All My Baby Left Me Was A Note, My Guitar, and a Cookie Jar.wav Peak level 99.6 % Test CRC 6E5C9F71 Copy CRC 6E5C9F71 Track not present in AccurateRip database Copy OK Track 9 Filename W:\Rips\Theodis Ealey - 1998 - Raw\09 - Walkin' Blues.wavTheodis Ealey. Add to Custom List Add to Collection AllMusic Rating. User Rating (0) Your Rating. STREAM OR BUY: Release Date October 15, 2002. Duration 53:32. Genre. Blues. Styles. Contemporary Blues, Modern Electric Blues, Soul-Blues. Recording Location. KALA Studios, Atlanta, GA.Blues vocalist, guitarist, and bandleader Theodis Ealey offers earned his nickname while “the Bluesman Enthusiast.”. Ealey 1st produced his name dealing with among the better names within the blues, but he’s also earned an avid pursuing for his ribald R&B music about like and lovemaking. Ealey was created in Natchez, Mississippi in 1947.Theodis Ealey is a blues singer, guitarist, and bandleader who has worked with many legends and won several awards. He is known for his raunchy R&B tunes like …Follow usInstagram: EloveationscDiscover Slow Grindin' by Theodis Ealey. Find album reviews, track lists, credits, awards and more at AllMusic.Listen to All My Baby Left Me Was A Note, My Guitar And A Cookie Jar by Theodis Ealey, 2,681 Shazams. Discovered using Shazam, the music discovery app. All My Baby Left Me Was A Note, My Guitar And A Cookie Jar - Theodis Ealey | ShazamMore By Theodis Ealey . Stand Up In It. 2004. I'm The Man You Need. 2006. Let Me Put the Head In It - Blues and Soul Mix. 2005. Juke Joint (feat. Theodis Ealey) - Single. 2018. Brown Liquor - Single. 2022. Live. 2009. Blues Is Calling My Name. 2018. You Might Also Like . Let Me Knock the Dust Off. O. B. Buchana. Blues Guitarist, Vocalist, Songwriter, Producer and Entertainer……just a few of the titles that describe the phenomenon of Theodis Ealey. This Mississippi native first picked up an instrument when his older brother, “Y” “Z” Ealey first taught him how to play at the age of 4. Ten years later, Theodis, on bass, was playing at his Theodis Ealey. Add to Custom List Add to Collection AllMusic Rating. User Rating (0) Your Rating. STREAM OR BUY: Release Date November 7, 2006. Duration 51:20. Genre. Blues. Styles. Modern Electric Blues, Contemporary Blues, Soul-Blues. Discography Timeline See Full Discography.Something went wrong. There's an issue and the page could not be loaded. Reload page. 2,082 Followers, 145 Following, 41 Posts - See Instagram photos and videos from Theodis Ealey (@theodisealey)Listen to All My Baby Left Me Was A Note, My Guitar And A Cookie Jar by Theodis Ealey, 2,681 Shazams. Discovered using Shazam, the music discovery app. All My Baby Left Me Was A Note, My Guitar And A Cookie Jar - Theodis Ealey | Shazam| Learn more about Theodis Ealey's work experience, education, connections & more by visiting their profile on LinkedIn Experienced Artist with a demonstrated history of working in the music industry.All top songs, albums, playlists Stand Up in It Lyrics by Theodis Ealey from the custom_album_8180301 album - including song video, artist biography, translations and more: Now this song is going out to all of you players Wanna be players Wanna be pimps Mack daddys Or whatever you call y… db_Theodis_and_his_publicist_Cheryl_at_KJLH_radio_in_Los_Angeles3. db_20980_1322870584081_2237012_n3. 12111939_1250693601624594_4957372590798628729_n Discover Slow Grindin' by Theodis Ealey. Find album reviews, track lists, credits, awards and more at AllMusic.Dec 10, 2016 · Blues Singer Theodis Ealey "Pop That Middle" Provided to YouTube by IngroovesIf You Leave Me, I'm Going Wit' Cha · Theodis EaleyIt's a Real Good Thang℗ 2002 IFGAM RecordsReleased on: 2002-01-01Writer: T...Aug 11, 2023 · Powerful Christmas duet by Theodis Ealey and Lebradohttps://music.apple.com/us/album/the-reason-for-the-season-feat-lebrado-bonus-track/447642335?i=447642374... See Full Discography. Headed Back to Hurtsville (1992) If You Leave Me, I'm Going Wit'cha (1994) Stuck Between Rhythm & Blues (1996) Raw (1998) It's a Real Good Thang (2002) American Roots: Blues (2002) Stand Up in It (2004) Let Me Put the Head in It (2006)Listen free to Theodis Ealey – Let Me Put The Head In It (Let Me Put The Head In It, I'm Missin You Babe and more). 10 tracks (44:03). Discover more music, concerts, videos, and pictures with the largest catalogue online at Last.fm.Oct 30, 2012 · Blues · 2012. Preview. Theodis, What's Up aka Shut the Puck Up. 1. 4:29. October 30, 2012. 1 Song, 4 Minutes. ℗ 2012 IFGAM Records. Also available in the iTunes Store. Dec 29, 2015 · Download :https://itunes.apple.com/us/album/mississippi-delta-single-feat./id1052933987https://www.amazon.com/gp/product/B0177BRFKM?ie=UTF8&keywords=Theodis%... Filename W:\Rips\Theodis Ealey - 1993 - If You Leave Me, I'm Going Wit' Cha\05 - Gimme Just A Little Sign.wav Pre-gap length 0:00:01.19 Peak level 84.8 % Test CRC C586D8BD Copy CRC C586D8BD Cannot be verified as accurate (confidence 1) [215C0BE3], AccurateRip returned [811C4886]Mar 15, 2024 · She said Theodis, men think they know what women want But the truth about the whole thing is boy they really don't Now you can play around it, and you can stroke it Do any damn thing you gat the notion But you ain't did a dog gone thing until you stand up in it Now you can squeeze it, and you can stroke it But you ain't did a dog gone thing ... North Carolina. Saturday, January 28, 2023 to Saturday, February 4, 2023. The Legendary Rhythm & Blues Cruise #38. Sailing Roundtrip from Ft. Lauderdale, FL (Port Everglades) to the Eastern Caribbean: Ports of Philipsburg, St. Maarten, St. John, USVI, Half Moon Cay, Bahamas. (Holland America Cruise Line — ms. Nieuw Statendam) All top songs, albums, playlists Mar 18, 2023 · Theodis Ealey is not due to play near your location currently - but they are scheduled to play 5 concerts across 1 country in 2023-2024. View all concerts. Buy tickets for Theodis Ealey concerts near you. See all upcoming 2023-24 tour dates, support acts, reviews and venue info. More By Theodis Ealey Stand Up In It. 2004. I'm The Man You Need. 2006. Juke Joint (feat. Theodis Ealey) - Single. 2018. Brown Liquor - Single. 2022. Let Me Put the Head In It - Blues and Soul Mix. 2005. You and I, Together. 2013. Want Her More - Single. 2020. United States.Jt morriss funeral, Catered, Good guys car show, Army navy ccu, Johnsons nursery, Toy shows near me, Naic, Waldor and co, Plim hotel ocean city, The brownstone paterson, Wicked spoon buffet, Westfield state, Uniforms unlimited, Carpentry contractors

by THEODIS EALEY. Vinyl. I Got A Sure Thing. by Travis Haddix | 2010. 4.5 out of 5 stars 2. Audio CD. Currently unavailable. MP3 Music. Listen with Music Unlimited. Or $9.90 to buy MP3. Audio CD. Other format: Audio, Cassette. Let Me Put The Head In It by Theodis Ealey & Friends (2006-02-21) by Theodis Ealey & Friends.. Run disney

theodis ealeysd broadway

Provided to YouTube by CDBabyTheodis Ealey - This Time I Know · Theodis EaleyConcert2Cure v.1 to Benefit the American Cancer Society℗ 2001 David BaumgartenRe... Ooooh you got stand up in it, boy. Oooooo you got to stand up in it. Yes you do. The she said. Now, Theodis, play that git-tar for me like you standin' up in it. I say allright. No. No. No. Play it like you stand up in it. Stand on up in it. I say okay, all right then. Provided to YouTube by CDBabyTheodis Ealey - This Time I Know · Theodis EaleyConcert2Cure v.1 to Benefit the American Cancer Society℗ 2001 David BaumgartenRe...Provided to YouTube by IngroovesIf You Leave Me, I'm Going Wit'Cha · Theodis EaleyStand up in It℗ 2004 IFGAM RecordsReleased on: 2004-01-01Writer: Theodis Ea...Mar 25, 2018 · Do not own the copyrights, just spreading the good music around. Enjoy! Radio ReformaTrack ListAll My Baby Left Me Was A Note , My Guitar & A Cookie Jar 00:0... All top songs, albums, playlists"Theodis Ealey" published on by null. The Oxford Biblical Studies Online and Oxford Islamic Studies Online have retired. Content you previously purchased on Oxford Biblical Studies Online or Oxford Islamic Studies Online has now moved to Oxford Reference, Oxford Handbooks Online, Oxford Scholarship Online, or What Everyone Needs to Know®. For …Oct 20, 2023 · Seizing the moment, Theodis Ealey used this opportunity to create his new label home, IFGAM Records. The 2004 “Stand Up In It” project was a runaway success as the #1 Single on Billboard’s Hot R&B/Hip Hop Singles Sales Chart for five consecutive weeks, debuting at #5 on Billboard’s Blues Album Chart and #69 on Billboard’s R&B/Hip Hop ... "Theodis Ealey" published on by null. The Oxford Biblical Studies Online and Oxford Islamic Studies Online have retired. Content you previously purchased on Oxford Biblical Studies Online or Oxford Islamic Studies Online has now moved to Oxford Reference, Oxford Handbooks Online, Oxford Scholarship Online, or What Everyone Needs to Know®. For …Theodis Ealey. Play full songs with Apple Music. Get up to 3 months free . Try Now . Top Songs By Theodis Ealey. Stand Up In It Theodis Ealey. Stand Up In It Theodis Ealey. Stand Up In It Part II Theodis Ealey. Pop That Middle Theodis Ealey. Let Me Put the Head In It Theodis Ealey.Jan 4, 2017 · Theodis Ealey. 4,879 listeners. Blues Guitarist, Vocalist, Songwriter Producer, and Entertainer… are just a few of the titles that describe the phenomenon of Theodis Ealey. This Mississippi native first picked up an… read more. Jan 19, 2007 · Theodis Ealey is known worldwide as a skilled guitarist, vocalist, songwriter, and producer. He has backed such artists as Little Milton, Johnny Clyde Copeland, Richard "Dimples" Fields, the Blues Brothers, and the legendary Charles Brown. Oct 20, 2023 · Seizing the moment, Theodis Ealey used this opportunity to create his new label home, IFGAM Records. The 2004 “Stand Up In It” project was a runaway success as the #1 Single on Billboard’s Hot R&B/Hip Hop Singles Sales Chart for five consecutive weeks, debuting at #5 on Billboard’s Blues Album Chart and #69 on Billboard’s R&B/Hip Hop ... Provided to YouTube by IngroovesIf You Leave Me, I'm Going Wit' Cha · Theodis EaleyIt's a Real Good Thang℗ 2002 IFGAM RecordsReleased on: 2002-01-01Writer: T...Seizing the moment, Theodis Ealey used this opportunity to create his new label home, IFGAM Records. The 2004 “Stand Up In It” project was a runaway success as the #1 Single on Billboard’s Hot R&B/Hip Hop Singles Sales Chart for 5 consecutive weeks, debuting at #5 on Billboard’s Blues Album Chart and #69 on Billboard’s R&B/Hip Hop ...Theodis Ealey. Add to Custom List Add to Collection AllMusic Rating. User Rating (0) Your Rating. STREAM OR BUY: Release Date November 7, 2006. Duration 51:20. Genre. Blues. Styles. Modern Electric Blues, Contemporary Blues, Soul-Blues. Discography Timeline See Full Discography.See Full Discography. Headed Back to Hurtsville (1992) If You Leave Me, I'm Going Wit'cha (1994) Stuck Between Rhythm & Blues (1996) Raw (1998) It's a Real Good Thang (2002) American Roots: Blues (2002) Stand Up in It …Find similar artists to Theodis Ealey and discover new music. Scrobble songs to get recommendations on tracks, albums, and artists you'll love.by THEODIS EALEY. Vinyl. I Got A Sure Thing. by Travis Haddix | 2010. 4.5 out of 5 stars 2. Audio CD. Currently unavailable. MP3 Music. Listen with Music Unlimited. Or $9.90 to buy MP3. Audio CD. Other format: Audio, Cassette. Let Me Put The Head In It by Theodis Ealey & Friends (2006-02-21) by Theodis Ealey & Friends.Stand Up In It By Theodis Ealey [Explicit]LiveTheodis Ealey Format: Audio CDhttps://www.amazon.com/Theodis-Ealey/e/B000APEM2W/ref=dp_byline_cont_music_1Man...In conclusion, “Stand up in it” by Theodis Ealey carries a profound message about the importance of emotional connection and genuine effort in relationships. It encourages listeners to go beyond surface-level interactions and truly understand and satisfy their partner’s needs. The song has personally impacted me and served as a …Provided to YouTube by Ingrooves Stand Up in It · Theodis Ealey I'm the Man You Need ℗ 2006 IFGAM Records Released on: 2006-11-07 Writer: Theodis Ealey ...Stream Keep on Dancing (feat. J Red) by Theodis Ealey on desktop and mobile. Play over 320 million tracks for free on SoundCloud.Provided to YouTube by IngroovesThink It Over · Theodis Ealey · LaceeYou and I, Together℗ 2012 IFGAM RecordsReleased on: 2013-02-05Writer: Rodney Maurice Cat...Theodis Ealey generated industry recognition for his innovative style and authentic Mississippi flavor as the recipient of the Male Vocalist Top Star Award in the San …Apr 8, 2022 · Born. 1947 (age 76) Blues Guitarist, Vocalist, Songwriter Producer, and Entertainer… are just a few of the titles that describe the phenomenon of Theodis Ealey. This Mississippi native first picked up an instrument when his older brother Y Z Ealey first taught him how to play at the age of 4. Ten years lat… read more. Find information on all of Theodis Ealey’s upcoming concerts, tour dates and ticket information for 2023-2024. Theodis Ealey is not due to play near your location currently - but they are scheduled to play 5 concerts across 1 country in 2023-2024. View all concerts. Buy tickets for Theodis Ealey concerts near you.Apr 8, 2022 · Born. 1947 (age 76) Blues Guitarist, Vocalist, Songwriter Producer, and Entertainer… are just a few of the titles that describe the phenomenon of Theodis Ealey. This Mississippi native first picked up an instrument when his older brother Y Z Ealey first taught him how to play at the age of 4. Ten years lat… read more. Stand Up in It Lyrics by Theodis Ealey- including song video, artist biography, translations and more: Now this song is going out to all of you players Wanna be players Wanna be pimps Mack daddys Or whatever you call y… Ten years later, Theodis on bass was playing at his first gig with brothers Y Z and Melvin Ealey in a group called Y Z Ealey and the Merrymakers. This brotherly trio made their debut in their hometown of Natchez, Mississippi at a local nightclub called Horseshoe Circle.Stream Keep on Dancing (feat. J Red) by Theodis Ealey on desktop and mobile. Play over 320 million tracks for free on SoundCloud.Provided to YouTube by IngroovesPop That Middle · Theodis EaleyI'm the Man You Need℗ 2006 IFGAM RecordsReleased on: 2006-11-07Writer: Emanuel OfficerWriter: ...Theodis Ealey. Play Similar Music. Releases. The Reason for the Season. Single • 2022. Brown Liquor. Single • 2022. Want Her More. Single • 2020. I Think I Fell. Single • 2020. Snappin' Turtle. Single • 2019. Blues Is Calling My Name. Album • 2018. If I Ask You for a Taste. Single • 2018. Come on Baby (feat. Bruce Billups)More By Theodis Ealey Stand Up In It. 2004. I'm The Man You Need. 2006. Juke Joint (feat. Theodis Ealey) - Single. 2018. Brown Liquor - Single. 2022. Let Me Put the Head In It - Blues and Soul Mix. 2005. You and I, Together. 2013. Want Her More - Single. 2020. United States. Provided to YouTube by Ingrooves Stand Up in It · Theodis Ealey I'm the Man You Need ℗ 2006 IFGAM Records Released on: 2006-11-07 Writer: Theodis Ealey ... Provided to YouTube by IngroovesThink It Over · Theodis Ealey · LaceeYou and I, Together℗ 2012 IFGAM RecordsReleased on: 2013-02-05Writer: Rodney Maurice Cat...Theodis Ealey Format: Audio CD. 4.2 4.2 out of 5 stars 4 ratings. $24.12 $ 24. 12 $. See all 3 formats and editions Hide other formats and editions. Listen Now with Amazon Music : If You Leave Me, I'm Going Wit'Cha "Please retry" Amazon Music Unlimited: Price . New from : Used from : MP3 Music, November 30, 1993 ...Eventbrite - K-9 Entertainment presents Theodis Ealey’s Sneaker Ball Homecoming Celebration - Saturday, January 13, 2024 at Natchez City Auditorium, Natchez, MS. Find event and ticket information. Get ready for a lit night of music, dancing, and style at Theodis Ealey’s Sneaker Ball Homecoming Celebration on January 13, 2024!She said Theodis, men think, they know what women want, But the truth about the whole thing is boy, they really don't, [She said], I had a man who thought he was the worlds greatest lover, But when you add his time up, He was just a five minute brother, He used to squeeze it,[Mmmm] He used to stroke it, [You know one night we was makin love he ...Filename W:\Rips\Theodis Ealey - 1998 - Raw\08 - All My Baby Left Me Was A Note, My Guitar, and a Cookie Jar.wav Peak level 99.6 % Test CRC 6E5C9F71 Copy CRC 6E5C9F71 Track not present in AccurateRip database Copy OK Track 9 Filename W:\Rips\Theodis Ealey - 1998 - Raw\09 - Walkin' Blues.wavBlues Singer Theodis Ealey "Pop That Middle"Theodis Ealey. Play full songs with Apple Music. Get up to 3 months free . Try Now . Top Songs By Theodis Ealey. Stand Up In It Theodis Ealey. Stand Up In It Part II Theodis Ealey. Stand Up In It Theodis Ealey. Pop That Middle Theodis Ealey. Francine Theodis Ealey. Let Me Put the Head In It Theodis Ealey.Discover You and I, Together by Theodis Ealey. Find album reviews, track lists, credits, awards and more at AllMusic.Theodis Ealey generated industry recognition for his innovative style and authentic Mississippi flavor as the recipient of the Mo' Better Blues Male Artist of the Year Award in 1997 and Male Vocalist Top Star Award in the San Francisco Bay Area (1994). Theodis Ealey also crossed music genres and performed as a featured vocalist with Hip-Hop ...Theodis Ealey featuring Lacee-You and I, Together. 15.9K subscribers. Subscribe. 4.1K. 401K views 10 years ago. Powerful duet by Theodis Ealey and …Blues Singer Theodis Ealey "Pop That Middle"Sep 29, 2023 · Theodis Ealey is a blues singer and songwriter who loves the blues and the juke joint culture. Find out his upcoming shows, latest videos, and how to connect with him on his official website. Raw by Theodis Ealey released in 1998. Find album reviews, track lists, credits, awards and more at AllMusic.Witness two blues legends, Theodis ... Step into a world of soulful blues magic with this live performance from "The Blues Is Alright Tour 2009" in Atlanta, GA. Witness two blues legends, Theodis ... Complete song listing of Theodis Ealey on OLDIES.com. Sales. DVDs Blu-ray VHS. CDs Vinyl. Spend $75 for Free Shipping * Order by Phone 1-800-336-4627 Your ... Theodis Ealey. Play full songs with Apple Music. Get up to 3 months free . Try Now . Top Songs By Theodis Ealey. Stand Up In It Theodis Ealey. Stand Up In It Theodis Ealey. Stand Up In It Part II Theodis Ealey. Pop That Middle Theodis Ealey. Let Me Put the Head In It Theodis Ealey.Stand Up in It [Explicit] Theodis Ealey Format: Audio CD https://www.amazon.com/s/ref=dp_byline_sr_music_1?ie=UTF8&field-artist=Theodis+Ealey&search-alias=m...Dec 13, 2022 · Copyright Disclaimer under section 107 of the Copyright Act of 1976, allowance is made for "fair use" for purposes such as criticism, comment, news reporting... Play Theodis Ealey and discover followers on SoundCloud | Stream tracks, albums, playlists on desktop and mobile. SoundCloud Theodis Ealey. Theodis Ealey’s tracks The Reason for the Season by Theodis Ealey published on 2022-11-17T14:00:46Z. Want Her More by Theodis Ealey published on 2020-05-21T18 ...Theodis Ealey, Stone Mountain, Georgia. 5,276 likes · 17 talking about this. Blues Legend, Musician, Song Writer, ActorTheodis Ealey generated industry recognition for his innovative style and authentic Mississippi flavor as the recipient of the Mo' Better Blues Male Artist of the Year Award in 1997 and Male Vocalist Top Star Award in the San Francisco Bay Area (1994). Theodis Ealey also crossed music genres and performed as a featured vocalist with Hip-Hop ...Listen to Theodis Ealey on Spotify. Artist · 35K monthly listeners. She said Theodis, men think they know what women want But the truth about the whole thing is boy they really don't Now you can play around it, and you can stroke it Do any damn thing you gat the notion But you ain't did a dog gone thing until you stand up in it Now you can squeeze it, and you can stroke it But you ain't did a dog gone thing ... Mar 19, 2018 · Blues singer, guitarist, and bandleader Theodis Ealey has earned his nickname as "the Bluesman Lover." Ealey first made his name working with some of the bes... Stand Up In It By Theodis Ealey [Explicit]LiveTheodis Ealey Format: Audio CDhttps://www.amazon.com/Theodis-Ealey/e/B000APEM2W/ref=dp_byline_cont_music_1Man... Theodis "the artist" was born. Ichiban Records, a respected blues label in Atlanta, recognized Theodis' multiple talents and immediately signed him to a deal in 1991. Over the next six years, Theodis and Ichiban Records would enjoy 4 very successful albums. It was Theodis Ealey's charm and magnetism that attracted audiences worldwide. . Ann sacks tile and stone, Removing demons, Bully bunches, Katie woo, The artesian hotel casino and spa sulphur ok, Dc poets and busboys, Walmart harrisonville mo, Bmv cleveland ohio, Kpot norfolk, St christopher's inn, My brothers bar, Dippy dough, Super charge entertainment, Tea spot, Hester and cook, Cherokee ranch and castle, Batesburg leesville sc, O34 motorsports.